感谢支持
我们一直在努力发现好电影

和你一样.2016.1080p.AMZN.WEBRip.DD5.1.x264-NTG 5.60GB


2016美国悬疑电影和你一样.2016.1080p.AMZN.WEBRip迅雷下载,故事发生在20世纪90年代初,讲述和再现了三个青少年之间的关系,它通过警方调查引发的完全不同的记忆来追溯他们的友谊历程。
◎译  名 和你一样 / 超脫青春(台)
◎片  名 As You Are
◎年  代 2016
◎网  站 http://www.btdytt.co
◎产  地 美国
◎类  别 剧情 / 悬疑
◎语  言 英语
◎上映日期 2016-05-11(戛纳电影节)
◎IMDb评分 6.6/10 from 1931 users
◎IMDb链接 https://www.imdb.com/title/tt4444438
◎豆瓣评分 0/10 from 0 users
◎豆瓣链接 https://movie.douban.com/subject/26677761/
◎片  长 110分钟
◎导  演 Miles Joris-Peyrafitte
◎编  剧 Miles Joris-Peyrafitte / Madison Harrison
◎主  演 欧文·坎贝尔 Owen Campbell
      Charlie Heaton
      阿曼德拉·斯坦伯格 Amandla Stenberg
      John Scurti
      斯科特·科恩 Scott Cohen
      玛丽·斯图尔特·马斯特森 Mary Stuart Masterson

◎标  签 美国 | 青春 | 同性 | 2016 | 美國 | 压抑 | 電影 | 同志
◎获奖情况

  第32届圣丹斯电影节(2016)
  评审团大奖 剧情片(提名)

  第64届圣塞巴斯蒂安国际电影节(2016)
  金贝壳奖(提名)
Video
ID : 1
Format : AVC
Format/Info : Advanced Video Codec
Format profile : High@L4
Format settings : CABAC / 4 Ref Frames
Format settings, CABAC : Yes
Format settings, Reference frames : 4 frames
Codec ID : V_MPEG4/ISO/AVC
Duration : 1 h 44 min
Bit rate mode : Variable
Bit rate : 7 012 kb/s
Maximum bit rate : 15.0 Mb/s
Width : 1 920 pixels
Height : 1 080 pixels
Display aspect ratio : 16:9
Frame rate mode : Constant
Frame rate : 23.976 (24000/1001/189150) FPS
Color space : YUV
Chroma subsampling : 4:2:0
Bit depth : 8 bits
Scan type : Progressive
Bits/(Pixel*Frame) : 0.141
Stream size : 5.13 GiB (92%)
Default : Yes
Forced : No
Color range : Limited
Color primaries : BT.709
Transfer characteristics : BT.709
Matrix coefficients : BT.709

Audio
ID : 2
Format : E-AC-3
Format/Info : Enhanced AC-3
Commercial name : Dolby Digital Plus
Codec ID : A_EAC3
Duration : 1 h 44 min
Bit rate mode : Constant
Bit rate : 640 kb/s
Channel(s) : 6 channels
Channel layout : L R C LFE Ls Rs
Sampling rate : 48.0 kHz
Frame rate : 31.250 FPS (1536 SPF)
Compression mode : Lossy
Stream size : 479 MiB (8%)
Language : English
Service kind : Complete Main
Default : Yes
Forced : No

Text
ID : 3
Format : UTF-8
Codec ID : S_TEXT/UTF8
Codec ID/Info : UTF-8 Plain Text
Duration : 1 h 44 min
Bit rate : 44 b/s
Count of elements : 1352
Stream size : 34.3 KiB (0%)
Language : English
Default : No
Forced : No

迅雷下载 赞(0) 在线观看

友情提示:如果你的迅雷下载提示"任务出错"、"因版权无法下载",请尝试用本站推荐软件【迅雷5】

据说分享下载会提高下载速度哦。BT电影天堂 » 和你一样.2016.1080p.AMZN.WEBRip.DD5.1.x264-NTG

BT电影天堂 更新快 资源好 超清影院品质

高清电影最新电影