感谢支持
我们一直在努力发现好电影

好孩子.2017.1080p.BluRay.x264-USURY 9.84GB


2017法国恐怖奇幻电影好孩子.2017.1080p.BluRay迅雷下载,护士Clara(伊萨贝尔·祖拉 饰)受雇到Ana(玛乔丽·伊斯迪安努 饰)家当保姆,脱离孤独的护士生活,在适应照顾这位神秘孕妇的工作期间,二人成了闺密。后来Clara从Ana口中得知她来自一个大富之家,却因怀孕而被惨遭抛弃,而肚里的骨肉更是跟狼人苟合所得。后来Ana在分娩期间不幸去世,留下新生的狼儿,于心不忍的Clara决心把他抚养成人,并要在月圆之夜时确保他远离任何人……
◎译  名 好孩子 / Good Manners / 彬彬有礼 / 礼貌
◎片  名 As Boas Maneiras
◎年  代 2017
◎产  地 巴西 / 法国 / 德国
◎类  别 剧情 / 恐怖 / 奇幻
◎语  言 葡萄牙语
◎上映日期 2017-08-06(洛迦诺电影节) / 2018-06-07(巴西)
◎IMDb评分 6.8/10 from 2344 users
◎IMDb链接 https://www.imdb.com/title/tt5480782
◎豆瓣评分 6.5/10 from 714 users
◎豆瓣链接 https://movie.douban.com/subject/26753452/
◎片  长 135分钟
◎导  演 马可·杜特拉 Marco Dutra / 朱莉安娜·罗夏斯 Juliana Rojas
◎编  剧 朱莉安娜·罗夏斯 Juliana Rojas / 马可·杜特拉 Marco Dutra
◎主  演 伊萨贝尔·祖拉 Isabél Zuaa
      玛乔丽·伊斯迪安努 Marjorie Estiano
      米格尔·洛博 Miguel Lobo
      希达·莫雷拉 Cida Moreira
      安德列·马克 Andréa Marquee
      马拉特·德斯卡尔奇斯 Marat Descartes
      露西安娜·帕埃斯 Luciana Paes

◎标  签 奇幻 | 巴西 | 恐怖 | 惊悚 | 法国 | 2017 | 剧情 | 洛迦诺

Video
ID : 1
Format : AVC
Format/Info : Advanced Video Codec
Format profile : High@L4.1
Format settings : CABAC / 4 Ref Frames
Format settings, CABAC : Yes
Format settings, Reference frames : 4 frames
Codec ID : V_MPEG4/ISO/AVC
Duration : 2 h 15 min
Bit rate : 8 852 kb/s
Width : 1 920 pixels
Height : 1 040 pixels
Display aspect ratio : 1.85:1
Frame rate mode : Constant
Frame rate : 23.976 (24000/1001/189150) FPS
Color space : YUV
Chroma subsampling : 4:2:0
Bit depth : 8 bits
Scan type : Progressive
Bits/(Pixel*Frame) : 0.185
Stream size : 8.40 GiB (85%)
Writing library : x264 core 157 r2969 d4099dd
Encoding settings : cabac=1 / ref=4 / deblock=1:-3:-3 / analyse=0x3:0x133 / me=umh / subme=9 / psy=1 / psy_rd=1.00:0.00 / mixed_ref=1 / me_range=16 / chroma_me=1 / trellis=2 / 8x8dct=1 / cqm=0 / deadzone=21,11 / fast_pskip=0 / chroma_qp_offset=-2 / threads=18 / lookahead_threads=1 / sliced_threads=0 / nr=0 / decimate=1 / interlaced=0 / bluray_compat=0 / constrained_intra=0 / bframes=3 / b_pyramid=2 / b_adapt=1 / b_bias=0 / direct=3 / weightb=1 / open_gop=0 / weightp=2 / keyint=240 / keyint_min=24 / scenecut=40 / intra_refresh=0 / rc_lookahead=50 / rc=2pass / mbtree=1 / bitrate=8852 / ratetol=1.0 / qcomp=0.60 / qpmin=0 / qpmax=69 / qpstep=4 / cplxblur=20.0 / qblur=0.5 / ip_ratio=1.40 / aq=1:1.00
Language : English
Default : Yes
Forced : No

Audio
ID : 2
Format : DTS
Format/Info : Digital Theater Systems
Codec ID : A_DTS
Duration : 2 h 15 min
Bit rate mode : Constant
Bit rate : 1 509 kb/s
Channel(s) : 6 channels
Channel layout : C L R Ls Rs LFE
Sampling rate : 48.0 kHz
Frame rate : 93.750 FPS (512 SPF)
Bit depth : 24 bits
Compression mode : Lossy
Stream size : 1.43 GiB (15%)
Language : Portuguese
Default : Yes
Forced : No

Text #1
ID : 3
Format : UTF-8
Codec ID : S_TEXT/UTF8
Codec ID/Info : UTF-8 Plain Text
Duration : 2 h 7 min
Bit rate : 30 b/s
Count of elements : 1131
Stream size : 28.8 KiB (0%)
Title : English
Language : English
Default : Yes
Forced : Yes

Text #2
ID : 4
Format : UTF-8
Codec ID : S_TEXT/UTF8
Codec ID/Info : UTF-8 Plain Text
Duration : 2 h 7 min
Bit rate : 32 b/s
Count of elements : 1126
Stream size : 30.5 KiB (0%)
Title : French
Language : French
Default : No
Forced : No

Menu
00:00:00.000 : en:00:00:00.000
00:09:54.803 : en:00:09:54.803
00:20:08.707 : en:00:20:08.707
00:30:31.246 : en:00:30:31.246
00:42:54.030 : en:00:42:54.030
00:50:54.260 : en:00:50:54.260
00:58:38.515 : en:00:58:38.515
01:08:22.890 : en:01:08:22.890
01:15:36.741 : en:01:15:36.741
01:24:32.276 : en:01:24:32.276
01:35:19.923 : en:01:35:19.923
01:41:37.008 : en:01:41:37.008
01:52:44.341 : en:01:52:44.341
02:01:39.292 : en:02:01:39.292
02:09:57.331 : en:02:09:57.331

迅雷下载 赞(0) 在线观看

友情提示:如果你的迅雷下载提示"任务出错"、"因版权无法下载",请尝试用本站推荐软件【迅雷5】

据说分享下载会提高下载速度哦。BT电影天堂 » 好孩子.2017.1080p.BluRay.x264-USURY

BT电影天堂 更新快 资源好 超清影院品质

高清电影最新电影