感谢支持
我们一直在努力发现好电影

双龙一虎闯天关.1997.1080p.AMZN.WEBRip.DDP2.0.x264-alfaHD 8.46GB


1997美国喜剧电影双龙一虎闯天关.1997.1080p.AMZN.WEBRip迅雷下载,这是一部揶揄好莱坞乱相的嘲讽喜剧,也是一部关于倒楣导演遭人作贱的悲惨过程。依据美国电影界的惯例,一部电影拍完后,导演如果不具名,便一律挂名为Alan Smithee,就像中文里(无名氏)的用法,偏偏片中导演的名字就叫做Alan Smithee,而他的运气也不见得太好,夹杂在制片、经纪人、律师、还有三个大牌明星(席维斯史特龙、成龙和琥碧戈柏分饰自己)合演的史上耗资最大钜片「Trio」之间,影片终于完成了……
◎译  名 双龙一虎闯天关 / 星光龙门阵
◎片  名 An Alan Smithee Film: Burn Hollywood Burn
◎年  代 1997
◎产  地 美国
◎类  别 喜剧
◎语  言 英语
◎上映日期 1997-10-01
◎IMDb评分 3.5/10 from 3302 users
◎IMDb链接 https://www.imdb.com/title/tt0118577
◎豆瓣评分 0/10 from 0 users
◎豆瓣链接 https://movie.douban.com/subject/1301514/
◎片  长 86 分钟
◎导  演 Arthur Hiller / Alan Smithee
◎编  剧 Joe Eszterhas
◎主  演 Ryan O’Neal
      Coolio
      Chuck D.
      Eric Idle
      Richard Jeni

◎标  签 美国 | 成龙 | 1997 | 演员成龙 | 欧美 | 喜剧 | D阿瑟·希勒 | 1993

Video
ID : 1
Format : AVC
Format/Info : Advanced Video Codec
Format profile : High@L4
Format settings : CABAC / 4 Ref Frames
Format settings, CABAC : Yes
Format settings, Reference frames : 4 frames
Codec ID : V_MPEG4/ISO/AVC
Duration : 1 h 25 min
Bit rate : 13.9 Mb/s
Width : 1 920 pixels
Height : 1 080 pixels
Display aspect ratio : 16:9
Frame rate mode : Constant
Frame rate : 23.976 (24000/1001/189150) FPS
Color space : YUV
Chroma subsampling : 4:2:0
Bit depth : 8 bits
Scan type : Progressive
Bits/(Pixel*Frame) : 0.280
Stream size : 8.33 GiB (98%)
Default : Yes
Forced : No
Color range : Limited
Color primaries : BT.709
Transfer characteristics : BT.709
Matrix coefficients : BT.709

Audio
ID : 2
Format : E-AC-3
Format/Info : Enhanced AC-3
Commercial name : Dolby Digital Plus
Codec ID : A_EAC3
Duration : 1 h 25 min
Bit rate mode : Constant
Bit rate : 224 kb/s
Channel(s) : 2 channels
Channel layout : L R
Sampling rate : 48.0 kHz
Frame rate : 31.250 FPS (1536 SPF)
Compression mode : Lossy
Stream size : 137 MiB (2%)
Language : English
Service kind : Complete Main
Default : Yes
Forced : No

Text #1
ID : 3
Format : UTF-8
Codec ID : S_TEXT/UTF8
Codec ID/Info : UTF-8 Plain Text
Duration : 1 h 25 min
Bit rate : 93 b/s
Count of elements : 1385
Stream size : 58.5 KiB (0%)
Language : English
Default : No
Forced : No

Text #2
ID : 4
Format : UTF-8
Codec ID : S_TEXT/UTF8
Codec ID/Info : UTF-8 Plain Text
Duration : 1 h 25 min
Bit rate : 97 b/s
Count of elements : 1419
Stream size : 61.0 KiB (0%)
Title : SDH
Language : English
Default : No
Forced : No

迅雷下载 赞(0) 在线观看

友情提示:如果你的迅雷下载提示"任务出错"、"因版权无法下载",请尝试用本站推荐软件【迅雷5】

据说分享下载会提高下载速度哦。BT电影天堂 » 双龙一虎闯天关.1997.1080p.AMZN.WEBRip.DDP2.0.x264-alfaHD

BT电影天堂 更新快 资源好 超清影院品质

高清电影最新电影