感谢支持
我们一直在努力发现好电影

火龙对决.2010.1080p.BluRay.x264-LCHD 7.93GB


2010香港动作电影火龙对决.2010.1080p.BluRay.mkv迅雷下载,重案组探长文方(黎明 饰)自两月前妻子遇害后,脾气变得浮躁古怪,因对监犯动粗常常被人投诉。一桩妓女被杀案的查询过程中,文方认识了总区重案的高档督察纪少群(任贤齐 饰),并派手下帮他找回了被偷走的手机。妓女被杀案查询与一宗枪火案交错在一起,重案组和查询枪火案的分队联合行为,不料伏击行为遭泄露,两边在茶馆展开激战,文方手下兄弟身受重伤,纪警官也随后赶到,在帮助追赶嫌犯途中被嫌犯开枪击中。妓女被杀案嫌犯开始确定重案组捕快高祥安(廖启志 饰),文方因保护手下被停职。在很多兄弟的帮助下,重案组抓到高祥安口中的戴渔帽的嫌犯,嫌犯对杀人案供认不讳。在压送嫌犯过程中嫌犯打个手铐并打伤祥安逃脱,接二两三的事故让文方对警界内部人员发生怀疑,在捕快小美(叶璇 饰)的帮助下,文方总算找出藏匿于警界之中的“老鬼”……
◎译  名 Fire of Conscience / 火龙
◎片  名 火龙对决
◎网  站 http://www.btdytt.co
◎大  小 7.93GB
◎年  代 2010
◎产  地 中国香港 / 中国大陆
◎类  别 动作 / 惊悚
◎语  言 粤语 / 汉语普通话
◎上映日期 2010-04-01
◎IMDb评分 6.2/10 from 909 users
◎IMDb链接 https://www.imdb.com/title/tt1602500
◎豆瓣评分 6.1/10 from 17059 users
◎豆瓣链接 https://movie.douban.com/subject/3993708/
◎片  长 106 分钟
◎导  演 林超贤
◎编  剧 吴炜伦
◎主  演 黎明
      任贤齐
      王宝强
      叶璇
      廖启智
      徐若瑄
      刘浩龙 Wilfred Lau
      应昌佑
      汤嬿 Yan Tang

◎标  签 香港电影 | 警匪 | 香港 | 黎明 | 动作 | 任贤齐 | 林超贤 | 2010
Video
ID : 1
Format : AVC
Format/Info : Advanced Video Codec
Format profile : [email protected]
Format settings : CABAC / 5 Ref Frames
Format settings, CABAC : Yes
Format settings, Reference frames : 5 frames
Codec ID : V_MPEG4/ISO/AVC
Duration : 1 h 45 min
Bit rate : 9 223 kb/s
Width : 1 920 pixels
Height : 816 pixels
Display aspect ratio : 2.35:1
Frame rate mode : Constant
Frame rate : 24.000 FPS
Color space : YUV
Chroma subsampling : 4:2:0
Bit depth : 8 bits
Scan type : Progressive
Bits/(Pixel*Frame) : 0.245
Stream size : 6.65 GiB (84%)
Writing library : x264 core 94 r1570 d9db8b3
Encoding settings : cabac=1 / ref=5 / deblock=1:-1:-1 / analyse=0x3:0x113 / me=umh / subme=7 / psy=1 / psy_rd=1.00:0.00 / mixed_ref=1 / me_range=16 / chroma_me=1 / trellis=2 / 8x8dct=1 / cqm=0 / deadzone=21,11 / fast_pskip=1 / chroma_qp_offset=-2 / threads=12 / sliced_threads=0 / nr=0 / decimate=1 / interlaced=0 / constrained_intra=0 / bframes=3 / b_pyramid=2 / b_adapt=2 / b_bias=0 / direct=3 / wpredb=1 / wpredp=2 / keyint=250 / keyint_min=25 / scenecut=40 / intra_refresh=0 / rc_lookahead=40 / rc=2pass / mbtree=1 / bitrate=9223 / ratetol=1.0 / qcomp=0.60 / qpmin=10 / qpmax=51 / qpstep=4 / cplxblur=20.0 / qblur=0.5 / vbv_maxrate=50000 / vbv_bufsize=50000 / ip_ratio=1.40 / aq=1:1.00 / nal_hrd=none
Language : Chinese
Default : Yes
Forced : Yes

Audio
ID : 2
Format : DTS
Format/Info : Digital Theater Systems
Codec ID : A_DTS
Duration : 1 h 45 min
Bit rate mode : Constant
Bit rate : 1 509 kb/s
Channel(s) : 6 channels
Channel layout : C L R Ls Rs LFE
Sampling rate : 48.0 kHz
Frame rate : 93.750 FPS (512 SPF)
Bit depth : 16 bits
Compression mode : Lossy
Stream size : 1.12 GiB (14%)
Language : Chinese
Default : Yes
Forced : Yes

Text
ID : 3
Format : UTF-8
Codec ID : S_TEXT/UTF8
Codec ID/Info : UTF-8 Plain Text
Language : English
Default : Yes
Forced : No

迅雷下载 赞(0) 在线观看

友情提示:如果你的迅雷下载提示"任务出错"、"因版权无法下载",请尝试用本站推荐软件【迅雷5】

据说分享下载会提高下载速度哦。BT电影天堂 » 火龙对决.2010.1080p.BluRay.x264-LCHD

BT电影天堂 更新快 资源好 超清影院品质

高清电影最新电影