感谢支持
我们一直在努力发现好电影

未來警察.2010.1080p.BluRay.x264-LCHD 7.93GB


2010香港科幻电影未來警察.2010.1080p.BluRay.mkv迅雷下载公元2080年,由于太阳能天幕的应用,人类基本上摆脱了动力危机。由于新动力的广泛应用损害了许多传统动力商人的利益,他们主意设法要除掉创造太阳能天幕的马博士。时值马博士创造太阳能天幕十周年留念,未来差人周志豪(刘德华 饰)与妻子美莉(范冰冰 饰)担任大会的安保作业,不料授命于动力商人的卡龙(樊少皇 饰)带领手下的改造人兵团半途闯入大会现场,企图杀死马博士。为了保护马博士,由周志豪带领的许多未来差人们与改造人兵团产生激战,在保护马博士脱离会场之时,周志豪妻子美莉不幸献身,卡龙一方也损失惨重。并未杀死马博士的动力商们过后盗取政府正在研制的时光旅行绝密材料,并且把卡龙和妻子斐娜改造成为终极杀人东西,他们要回到曩昔杀死年青的马博士,以图改变未来。为了保护马博士,满怀丧妻之痛的周杰豪被改造成为超级兵士,携女儿淇淇(徐娇 饰)回到2020年寻觅并保护年仅12岁的马博士……
◎译  名 未来警察 / Future X-Cops / Mei loi ging chaat
◎片  名 未來警察
◎网  站 http://www.btdytt.co
◎大  小 7.93GB
◎年  代 2010
◎产  地 中国香港 / 中国台湾
◎类  别 科幻
◎语  言 汉语普通话 / 粤语
◎上映日期 2010-03-30(中国大陆) / 2010-04-15(中国香港)
◎IMDb评分 3.4/10 from 837 users
◎IMDb链接 https://www.imdb.com/title/tt1337055
◎豆瓣评分 3.9/10 from 44861 users
◎豆瓣链接 https://movie.douban.com/subject/3329192/
◎片  长 99分钟
◎导  演 王晶 Jing Wong
◎编  剧 王晶 Jing Wong
◎主  演 刘德华 Andy Lau
      徐熙媛 Barbie Hsu
      徐娇 Jiao Xu (I)
      樊少皇 Siu-Wong Fan
      唐一菲 Yifei Tang
      范冰冰 Bingbing Fan
      贺军翔 Mike
      陈建州 Charles ‘Blackie’ Chen
      马精武 Jingwu Ma
      孟瑶 Yao Meng
      刘洋 Young Liu
      罗家英 Kar-Ying Law
      刘仪伟 Yiwei Liu

◎标  签 科幻 | 香港 | 烂片 | 2010 | 动作 | 中国 | 警匪 | 国产



Video
ID : 1
Format : AVC
Format/Info : Advanced Video Codec
Format profile : [email protected]
Format settings : CABAC / 5 Ref Frames
Format settings, CABAC : Yes
Format settings, Reference frames : 5 frames
Codec ID : V_MPEG4/ISO/AVC
Duration : 1 h 40 min
Bit rate : 9 821 kb/s
Width : 1 920 pixels
Height : 816 pixels
Display aspect ratio : 2.35:1
Frame rate mode : Constant
Frame rate : 24.000 FPS
Color space : YUV
Chroma subsampling : 4:2:0
Bit depth : 8 bits
Scan type : Progressive
Bits/(Pixel*Frame) : 0.261
Stream size : 6.72 GiB (85%)
Writing library : x264 core 98 r1649 c54c47d
Encoding settings : cabac=1 / ref=5 / deblock=1:-1:-1 / analyse=0x3:0x113 / me=umh / subme=7 / psy=1 / psy_rd=1.00:0.00 / mixed_ref=1 / me_range=16 / chroma_me=1 / trellis=1 / 8x8dct=1 / cqm=0 / deadzone=21,11 / fast_pskip=1 / chroma_qp_offset=-2 / threads=6 / sliced_threads=0 / nr=0 / decimate=1 / interlaced=0 / constrained_intra=0 / bframes=3 / b_pyramid=2 / b_adapt=2 / b_bias=0 / direct=3 / weightb=1 / weightp=2 / keyint=250 / keyint_min=25 / scenecut=40 / intra_refresh=0 / rc_lookahead=40 / rc=2pass / mbtree=1 / bitrate=9821 / ratetol=1.0 / qcomp=0.60 / qpmin=10 / qpmax=51 / qpstep=4 / cplxblur=20.0 / qblur=0.5 / vbv_maxrate=50000 / vbv_bufsize=50000 / ip_ratio=1.40 / aq=1:1.00 / nal_hrd=none
Language : Chinese
Default : Yes
Forced : Yes

Audio
ID : 2
Format : DTS
Format/Info : Digital Theater Systems
Codec ID : A_DTS
Duration : 1 h 40 min
Bit rate mode : Constant
Bit rate : 1 509 kb/s
Channel(s) : 6 channels
Channel layout : C L R Ls Rs LFE
Sampling rate : 48.0 kHz
Frame rate : 93.750 FPS (512 SPF)
Bit depth : 16 bits
Compression mode : Lossy
Stream size : 1.06 GiB (13%)
Language : Chinese
Default : Yes
Forced : Yes

Text
ID : 3
Format : UTF-8
Codec ID : S_TEXT/UTF8
Codec ID/Info : UTF-8 Plain Text
Language : English
Default : Yes
Forced : No

迅雷下载 赞(0) 在线观看

友情提示:如果你的迅雷下载提示"任务出错"、"因版权无法下载",请尝试用本站推荐软件【迅雷5】

据说分享下载会提高下载速度哦。BT电影天堂 » 未來警察.2010.1080p.BluRay.x264-LCHD

BT电影天堂 更新快 资源好 超清影院品质

高清电影最新电影