感谢支持
我们一直在努力发现好电影

越光宝盒.2010.1080p.BluRay.x264-LCHD 6.55GB


2010中国奇幻喜剧电影越光宝盒.2010.1080p.BluRay.mkv迅雷下载,特性莽撞的玫瑰仙子(孙俪 饰)巴望可以像紫霞仙子一样找到一世喜爱,于是从日月神灯前盗取那把曾见证旷古爱恋的紫青宝剑来到世间,期望找到能拔剑出鞘的真命天子。山贼清一色(郑中基 饰)只想本本份份做个山贼,不料却拔出玫瑰仙子的紫青宝剑,之后俩人又意外通过越光宝盒穿越时空,亲历赤壁之战。在穿越的日子里,玫瑰仙子关于拔剑出鞘的清一色各样示爱,而一心想从头踏上穿越时空之路的清一色却对玫瑰仙子仅仅假意奉承,在使用玫瑰仙子从曹操(郭德纲 饰)手里夺回越光宝盒之后,他决然弃玫瑰仙子于不顾,单独回到从前。但是再次偶到玫瑰仙子之时,清一色却发现有一份爱早已在自己的心头生根发芽……
  本片借经典影片《月光宝盒》之春风,58位明星倾情加盟,并从头演绎近年来多部影片中的精彩片段,“笑果”非比寻常。
◎译  名 Just Another Pandora’s Box / Once Upon A Chinese Classic
◎片  名 越光宝盒
◎年  代 2010
◎网  站 http://www.btdytt.co
◎大  小 6.55GB
◎产  地 中国大陆 / 中国香港
◎类  别 喜剧 / 爱情 / 奇幻 / 古装
◎语  言 汉语普通话 / 粤语
◎上映日期 2010-03-18(中国大陆/中国香港)
◎IMDb评分 4.5/10 from 615 users
◎IMDb链接 https://www.imdb.com/title/tt1612143
◎豆瓣评分 5.2/10 from 142296 users
◎豆瓣链接 https://movie.douban.com/subject/3928370/
◎片  长 86分钟
◎导  演 刘镇伟 Jeffrey Lau
◎编  剧 刘镇伟 Jeffrey Lau
◎主  演 孙俪 Li Sun
      郑中基 Ronald Cheng
      朱茵 Athena Chu
      梁咏琪 Gigi Leung
      郭德纲 Degang Guo
      曾志伟 Eric Tsang
      黄渤 Bo Huang
      谭耀文 Patrick Tam
      钟欣潼 Gillian Chung
      黄奕 Yi Huang
      蔡少芬 Ada Choi
      方力申 Lik-Sun Fong
      吴君如 Sandra Ng
      樊少皇 Siu-Wong Fan
      元彪 Biao Yuen
      邓丽欣 Stephy Tang
      吴京 Jing Wu
      刘镇伟 Jeffrey Lau
      钟镇涛 Kenny Bee
      郭涛 Tao Guo
      连晋 Teddy Lin
      王学兵 Xuebing Wang
      于谦 Qian Yu
      元秋 Qiu Yuen
      元华 Wah Yuen
      徐娇 Jiao Xu
      林子聪 Chi Chung Lam
      李健仁 Kin-Yan Lee
      林雪 Suet Lam
      梁汉文 Edmond Leung
      袁祥仁 Cheung-Yan Yuen
      厉娜 Lina
      艾梦萌 Mengmeng Ai
      于荣光 Ringo Yu
      梁小龙 Siu-Lung Leung

◎标  签 喜剧 | 无厘头的恶搞 | 香港 | 搞笑 | 2010 | 恶搞 | 无厘头 | 中国
Video
ID : 1
Format : AVC
Format/Info : Advanced Video Codec
Format profile : [email protected]
Format settings : CABAC / 5 Ref Frames
Format settings, CABAC : Yes
Format settings, Reference frames : 5 frames
Codec ID : V_MPEG4/ISO/AVC
Duration : 1 h 29 min
Bit rate : 8 987 kb/s
Width : 1 920 pixels
Height : 816 pixels
Display aspect ratio : 2.35:1
Frame rate mode : Constant
Frame rate : 24.000 FPS
Color space : YUV
Chroma subsampling : 4:2:0
Bit depth : 8 bits
Scan type : Progressive
Bits/(Pixel*Frame) : 0.239
Stream size : 5.48 GiB (84%)
Writing library : x264 core 94 r1570 d9db8b3
Encoding settings : cabac=1 / ref=5 / deblock=1:-1:-1 / analyse=0x3:0x113 / me=umh / subme=7 / psy=1 / psy_rd=1.00:0.00 / mixed_ref=1 / me_range=16 / chroma_me=1 / trellis=2 / 8x8dct=1 / cqm=0 / deadzone=21,11 / fast_pskip=1 / chroma_qp_offset=-2 / threads=6 / sliced_threads=0 / nr=0 / decimate=1 / interlaced=0 / constrained_intra=0 / bframes=3 / b_pyramid=2 / b_adapt=2 / b_bias=0 / direct=3 / wpredb=1 / wpredp=2 / keyint=250 / keyint_min=25 / scenecut=40 / intra_refresh=0 / rc_lookahead=40 / rc=2pass / mbtree=1 / bitrate=8987 / ratetol=1.0 / qcomp=0.60 / qpmin=10 / qpmax=51 / qpstep=4 / cplxblur=20.0 / qblur=0.5 / vbv_maxrate=50000 / vbv_bufsize=50000 / ip_ratio=1.40 / aq=1:1.00 / nal_hrd=none
Language : Chinese
Default : Yes
Forced : Yes

Audio
ID : 2
Format : DTS
Format/Info : Digital Theater Systems
Codec ID : A_DTS
Duration : 1 h 29 min
Bit rate mode : Constant
Bit rate : 1 509 kb/s
Channel(s) : 6 channels
Channel layout : C L R Ls Rs LFE
Sampling rate : 48.0 kHz
Frame rate : 93.750 FPS (512 SPF)
Bit depth : 16 bits
Compression mode : Lossy
Stream size : 965 MiB (14%)
Language : Chinese
Default : Yes
Forced : Yes

Text
ID : 3
Format : UTF-8
Codec ID : S_TEXT/UTF8
Codec ID/Info : UTF-8 Plain Text
Language : English
Default : Yes
Forced : No

迅雷下载 赞(0) 在线观看

友情提示:如果你的迅雷下载提示"任务出错"、"因版权无法下载",请尝试用本站推荐软件【迅雷5】

据说分享下载会提高下载速度哦。BT电影天堂 » 越光宝盒.2010.1080p.BluRay.x264-LCHD

BT电影天堂 更新快 资源好 超清影院品质

高清电影最新电影