感谢支持
我们一直在努力发现好电影

食人猪.2009.1080p.BluRay.x264-aAF 9.83GB


2009韩国恐怖惊悚电影食人猪.2009.1080p迅雷磁力下载,坐落韩国某山区的智翼村,是一座声称零违法村的旅游胜地。每到假期或周末,全国各地的游客集合于此,享用可贵的高兴生活。为了招引更多的游客,智翼村相继开发了高尔夫球场合周末农场,为此采伐了许多的原始森林。野生动物的生计环境遭到破坏,加上偷猎者的侵扰,野猪数量急剧削减。为了生计,野猪初步发掘人类的坟墓,啃噬尸身,由此对人肉产生了稠密的兴趣。
  某天,村中一名猎人孙女的尸身被人发现,她的尸身破碎不胜,只留下头颅。经法医鉴定和老猎人的查询,这起惨案系一头是人野猪所为。在此之后,配备精巧的猎人们来到智翼村,人兽的战争逐步白热化……

◎译  名 食人猪/骇人巨兽(台)

◎片  名 차우

◎年  代 2009

◎产  地 韩国

◎类  别 喜剧/恐怖/惊悚

◎语  言 韩语

◎上映日期 2009-07-15(韩国)

◎BT之家整理 http://www.btbtt.us/

◎片  长 121分钟

◎导  演 申政元 Jeong-won Shin

◎主  演 严泰雄 Tae-woong Eom

      郑有美 Yu-mi Jung

      张恒善 Hang-Seon Jang

      尹宰文 Je-mun Yun

Video
ID : 1
Format : AVC
Format/Info : Advanced Video Codec
Format profile : [email protected]
Format settings : CABAC / 4 Ref Frames
Format settings, CABAC : Yes
Format settings, ReFrames : 4 frames
Codec ID : V_MPEG4/ISO/AVC
Duration : 2 h 2 min
Bit rate : 8 500 kb/s
Width : 1 920 pixels
Height : 1 040 pixels
Display aspect ratio : 1.85:1
Frame rate mode : Constant
Frame rate : 23.976 (24000/1001) FPS
Color space : YUV
Chroma subsampling : 4:2:0
Bit depth : 8 bits
Scan type : Progressive
Bits/(Pixel*Frame) : 0.178
Stream size : 7.06 GiB (72%)
Writing library : x264 core 115 r2008 4c552d8
Encoding settings : cabac=1 / ref=4 / deblock=1:0:0 / analyse=0x3:0x133 / me=umh / subme=8 / psy=1 / psy_rd=1.00:0.00 / mixed_ref=1 / me_range=16 / chroma_me=1 / trellis=1 / 8x8dct=1 / cqm=0 / deadzone=21,11 / fast_pskip=0 / chroma_qp_offset=-2 / threads=12 / sliced_threads=0 / nr=0 / decimate=1 / interlaced=0 / bluray_compat=0 / constrained_intra=0 / bframes=3 / b_pyramid=2 / b_adapt=1 / b_bias=0 / direct=1 / weightb=1 / open_gop=0 / weightp=2 / keyint=240 / keyint_min=24 / scenecut=40 / intra_refresh=0 / rc_lookahead=40 / rc=2pass / mbtree=1 / bitrate=8500 / ratetol=1.0 / qcomp=0.60 / qpmin=0 / qpmax=69 / qpstep=4 / cplxblur=20.0 / qblur=0.5 / ip_ratio=1.40 / aq=1:1.00
Language : Korean
Default : Yes
Forced : No

Audio
ID : 3
Format : DTS
Format/Info : Digital Theater Systems
Codec ID : A_DTS
Duration : 2 h 2 min
Bit rate mode : Constant
Bit rate : 1 509 kb/s
Channel(s) : 6 channels
Channel positions : Front: L C R, Side: L R, LFE
Sampling rate : 48.0 kHz
Frame rate : 93.750 FPS (512 SPF)
Bit depth : 16 bits
Compression mode : Lossy
Stream size : 1.29 GiB (13%)
Language : Korean
Default : Yes
Forced : No

Text
ID : 2
Format : UTF-8
Codec ID : S_TEXT/UTF8
Codec ID/Info : UTF-8 Plain Text
Language : English
Default : Yes
Forced : No

迅雷下载 赞(0) 在线观看

友情提示:如果你的迅雷下载提示"任务出错"、"因版权无法下载",请尝试用本站推荐软件【迅雷5】

据说分享下载会提高下载速度哦。BT电影天堂 » 食人猪.2009.1080p.BluRay.x264-aAF

BT电影天堂 更新快 资源好 超清影院品质

高清电影最新电影