感谢支持
我们一直在努力发现好电影

小双侠.2009.1080p.BluRay.x264-LCHD 7.95GB


2009日本动作科幻电影小双侠.2009.1080p.mkv迅雷下载,高田玩具店老板的独生子小刚(樱井翔 饰)秉承了父辈的基因,创造出能够用来战役的巨型机器狗“小狗侠汪汪”。他和女友小爱(福田沙纪 饰)组成正义的“小双侠”,为维护国际和平不断极力。他们的首要对手是杜伦布贼党,分别由女贼头多龙芝(深田恭子 饰)及其一胖一瘦两个随从童兹拉(小林剑道 饰)和波亚基(生濑胜久 饰)组成。多龙芝效能于响马之神骷髅贝,他们授命四处寻找传说中能够完成任何期望的骷髅石碎片。
  少女翔子(冈田杏理 饰)的父亲海江田博士(阿部隆史 饰)是一位考古学家,他在寻找骷髅石的过程中突然失踪。从翔子那里得知详情的小双侠为阻止骷髅贝消亡国际的诡计,与多龙芝一众打开连番精彩剧烈的战役……

◎译  名 小双侠 / Yatterman
◎片  名 ヤッターマン
◎年  代 2009
◎产  地 日本
◎类  别 喜剧 / 动作 / 科幻 / 歌舞 / 奇幻 / 冒险
◎语  言 日语 / 挪威语
◎上映日期 2009-03-07(日本)
◎IMDb评分 6.0/10 from 1772 users
◎IMDb链接 https://www.imdb.com/title/tt1010055
◎豆瓣评分 5.9/10 from 2034 users
◎豆瓣链接 https://movie.douban.com/subject/2337873/
◎片  长 111分钟
◎导  演 三池崇史 Takashi Miike
◎编  剧 吉田龙夫 Tatsuo Yoshida / 十川诚志 Masashi Sogo
◎主  演 樱井翔 Sh? Sakurai
      福田沙纪 Saki Fukuda
      深田恭子 Ky?ko Fukada
      小林剑道 Kobayashi Kendo
      生濑胜久 Katsuhisa Namase
      山寺宏一 K?ichi Yamadera
      阿部隆史 Sadao Abe
      羽鸟慎一 Shinichi Hatori
      一本气伸吾 Shingo Ippongi
      冈本杏理 Anri Okamoto
      斋藤步 Ayumu Sait?

◎标  签 三池崇史 | 深田恭子 | 日本 | 日本电影 | 櫻井翔 | 樱井翔 | 2009 | 日语电影
Video
ID : 1
Format : AVC
Format/Info : Advanced Video Codec
Format profile : [email protected]
Format settings : CABAC / 5 Ref Frames
Format settings, CABAC : Yes
Format settings, Reference frames : 5 frames
Codec ID : V_MPEG4/ISO/AVC
Duration : 1 h 51 min
Bit rate : 8 702 kb/s
Width : 1 920 pixels
Height : 800 pixels
Display aspect ratio : 2.40:1
Frame rate mode : Constant
Frame rate : 23.976 (24000/1001/189150) FPS
Color space : YUV
Chroma subsampling : 4:2:0
Bit depth : 8 bits
Scan type : Progressive
Bits/(Pixel*Frame) : 0.236
Stream size : 6.62 GiB (83%)
Writing library : x264 core 94 r1563 fbcc1ec
Encoding settings : cabac=1 / ref=5 / deblock=1:-1:-1 / analyse=0x3:0x113 / me=umh / subme=7 / psy=1 / psy_rd=1.00:0.00 / mixed_ref=1 / me_range=16 / chroma_me=1 / trellis=2 / 8x8dct=1 / cqm=0 / deadzone=21,11 / fast_pskip=1 / chroma_qp_offset=-2 / threads=6 / sliced_threads=0 / nr=0 / decimate=1 / interlaced=0 / constrained_intra=0 / bframes=3 / b_pyramid=2 / b_adapt=2 / b_bias=0 / direct=3 / wpredb=1 / wpredp=2 / keyint=250 / keyint_min=25 / scenecut=40 / intra_refresh=0 / rc_lookahead=40 / rc=2pass / mbtree=1 / bitrate=8702 / ratetol=1.0 / qcomp=0.60 / qpmin=10 / qpmax=51 / qpstep=4 / cplxblur=20.0 / qblur=0.5 / vbv_maxrate=50000 / vbv_bufsize=50000 / ip_ratio=1.40 / aq=1:1.00 / nal_hrd=none
Language : English
Default : Yes
Forced : Yes

Audio
ID : 2
Format : DTS
Format/Info : Digital Theater Systems
Codec ID : A_DTS
Duration : 1 h 51 min
Bit rate mode : Constant
Bit rate : 1 509 kb/s
Channel(s) : 6 channels
Channel layout : C L R Ls Rs LFE
Sampling rate : 48.0 kHz
Frame rate : 93.750 FPS (512 SPF)
Bit depth : 16 bits
Compression mode : Lossy
Stream size : 1.17 GiB (15%)
Language : English
Default : Yes
Forced : Yes

Text
ID : 3
Format : UTF-8
Codec ID : S_TEXT/UTF8
Codec ID/Info : UTF-8 Plain Text
Language : English
Default : Yes
Forced : NoVideo
ID : 1
Format : AVC
Format/Info : Advanced Video Codec
Format profile : [email protected]
Format settings : CABAC / 5 Ref Frames
Format settings, CABAC : Yes
Format settings, Reference frames : 5 frames
Codec ID : V_MPEG4/ISO/AVC
Duration : 1 h 51 min
Bit rate : 8 702 kb/s
Width : 1 920 pixels
Height : 800 pixels
Display aspect ratio : 2.40:1
Frame rate mode : Constant
Frame rate : 23.976 (24000/1001/189150) FPS
Color space : YUV
Chroma subsampling : 4:2:0
Bit depth : 8 bits
Scan type : Progressive
Bits/(Pixel*Frame) : 0.236
Stream size : 6.62 GiB (83%)
Writing library : x264 core 94 r1563 fbcc1ec
Encoding settings : cabac=1 / ref=5 / deblock=1:-1:-1 / analyse=0x3:0x113 / me=umh / subme=7 / psy=1 / psy_rd=1.00:0.00 / mixed_ref=1 / me_range=16 / chroma_me=1 / trellis=2 / 8x8dct=1 / cqm=0 / deadzone=21,11 / fast_pskip=1 / chroma_qp_offset=-2 / threads=6 / sliced_threads=0 / nr=0 / decimate=1 / interlaced=0 / constrained_intra=0 / bframes=3 / b_pyramid=2 / b_adapt=2 / b_bias=0 / direct=3 / wpredb=1 / wpredp=2 / keyint=250 / keyint_min=25 / scenecut=40 / intra_refresh=0 / rc_lookahead=40 / rc=2pass / mbtree=1 / bitrate=8702 / ratetol=1.0 / qcomp=0.60 / qpmin=10 / qpmax=51 / qpstep=4 / cplxblur=20.0 / qblur=0.5 / vbv_maxrate=50000 / vbv_bufsize=50000 / ip_ratio=1.40 / aq=1:1.00 / nal_hrd=none
Language : English
Default : Yes
Forced : Yes

Audio
ID : 2
Format : DTS
Format/Info : Digital Theater Systems
Codec ID : A_DTS
Duration : 1 h 51 min
Bit rate mode : Constant
Bit rate : 1 509 kb/s
Channel(s) : 6 channels
Channel layout : C L R Ls Rs LFE
Sampling rate : 48.0 kHz
Frame rate : 93.750 FPS (512 SPF)
Bit depth : 16 bits
Compression mode : Lossy
Stream size : 1.17 GiB (15%)
Language : English
Default : Yes
Forced : Yes

Text
ID : 3
Format : UTF-8
Codec ID : S_TEXT/UTF8
Codec ID/Info : UTF-8 Plain Text
Language : English
Default : Yes
Forced : No

迅雷下载 赞(0) 在线观看

友情提示:如果你的迅雷下载提示"任务出错"、"因版权无法下载",请尝试用本站推荐软件【迅雷5】

据说分享下载会提高下载速度哦。BT电影天堂 » 小双侠.2009.1080p.BluRay.x264-LCHD

BT电影天堂 更新快 资源好 超清影院品质

高清电影最新电影