感谢支持
我们一直在努力发现好电影

前哨.2020.2160p.WEB.H265-HUZZAH 10.33GB


2020美国历史战争电影前哨.2020.2160p.WEB.H265.mkv完整版迅雷下载,斯科特·伊斯特伍德、卡赖伯·兰德里·琼斯、奥兰多·布鲁姆将主演Millennium Media打造的阿富汗战役体裁影片[前哨](The Outpost,暂译)。罗德·拉里执导影片,影片则依据CNN记者Jake Tapper作品改编。影片故事将环绕53名美国兵士的实在故事翻开,这些兵士与阿富汗东北部约400名敌方配备分子摆开耐久的作战。他们所制作的前哨基地坐落巴基斯坦边境仅14英里处的三处峻峭山脉底部。基地则面对塔利班恐怖分子的突击。而驻扎在那里的兵士则面对着巨大挟制。片中斯科特·伊斯特伍德扮演克林特·罗马沙军士,卡赖伯·兰德里·琼斯扮演专业军士Ty Michael Carter,布鲁姆扮演的Benjamin D. Keating在阿富汗战役中不幸丧生。该片估量将在本年8月翻开拍摄,影片也将在戛纳电影节寻觅买家。

◎译  名 前哨 / 72小时前哨救援(台) / 前哨基地
◎片  名 The Outpost
◎年  代 2020
◎产  地 保加利亚 / 美国
◎类  别 剧情 / 历史 / 战争
◎语  言 英语
◎上映日期 2020-07-03(美国)
◎IMDb评分 6.6/10 from 2088 users
◎IMDb链接 https://www.imdb.com/title/tt3833480
◎豆瓣评分 6.8/10 from 389 users
◎豆瓣链接 https://movie.douban.com/subject/30212622/
◎片  长 123分钟
◎导  演 罗德·拉里 Rod Lurie
◎编  剧 埃瑞克·约翰逊 Eric Johnson / 保罗·塔马西 Paul Tamasy / 杰克·塔伯 Jake Tapper
◎主  演 斯科特·伊斯特伍德 Scott Eastwood
      奥兰多·布鲁姆 Orlando Bloom
      卡赖伯·兰德里·琼斯 Caleb Landry Jones
      雅各布·西皮奥 Jacob Scipio
      杰克·凯西 Jack Kesy
      米洛·吉布森 Milo Gibson
      阿历克斯·阿诺 Alexander Arnold
      塞莱娜·辛顿 Celina Sinden
      泰勒·约翰·史密斯 Taylor John Smith
      科里·哈德里克 Cory Hardrict
      巴比·洛克伍德 Bobby Lockwood
      威尔·阿滕伯勒 Will Attenborough
      法希姆·法兹利 Fahim Fazli
      詹姆斯·贾格尔 James Jagger
      科瓦米·帕特森 Kwame Patterson
      阿尔菲·斯图尔特 Alfie Stewart

◎标  签 战争 | 阿富汗战争 | 真实事件改编 | 美国 | 2020 | 美国电影 | 电影 | 剧情
Video
ID : 1
Format : HEVC
Format/Info : High Efficiency Video Coding
Format profile : [email protected]@Main
Codec ID : V_MPEGH/ISO/HEVC
Duration : 2 h 3 min
Bit rate : 11.6 Mb/s
Width : 3 840 pixels
Height : 2 160 pixels
Display aspect ratio : 16:9
Frame rate mode : Constant
Frame rate : 23.976 (24000/1001/189150) FPS
Color space : YUV
Chroma subsampling : 4:2:0
Bit depth : 8 bits
Bits/(Pixel*Frame) : 0.059
Stream size : 10.0 GiB (98%)
Writing library : x265 3.0:[Linux][GCC 4.8.5][64 bit] 8bit
Encoding settings : cpuid=1111039 / frame-threads=6 / wpp / no-pmode / no-pme / no-psnr / no-ssim / log-level=2 / input-csp=1 / input-res=3840×2160 / interlace=0 / total-frames=0 / level-idc=0 / high-tier=1 / uhd-bd=0 / ref=3 / no-allow-non-conformance / no-repeat-headers / annexb / no-aud / no-hrd / info / hash=0 / no-temporal-layers / no-open-gop / min-keyint=4 / keyint=48 / gop-lookahead=0 / bframes=4 / b-adapt=2 / b-pyramid / bframe-bias=0 / rc-lookahead=80 / lookahead-slices=4 / scenecut=0 / radl=0 / no-splice / no-intra-refresh / ctu=64 / min-cu-size=8 / rect / no-amp / max-tu-size=32 / tu-inter-depth=1 / tu-intra-depth=1 / limit-tu=0 / rdoq-level=2 / dynamic-rd=0.00 / no-ssim-rd / signhide / no-tskip / nr-intra=0 / nr-inter=0 / no-constrained-intra / strong-intra-smoothing / max-merge=3 / limit-refs=3 / limit-modes / me=2 / subme=3 / merange=64 / temporal-mvp / weightp / no-weightb / no-analyze-src-pics / deblock=0:0 / no-sao / no-sao-non-deblock / rd=4 / no-early-skip / no-rskip / no-fast-intra / no-tskip-fast / no-cu-lossless / no-b-intra / no-splitrd-skip / rdpenalty=0 / psy-rd=4.00 / psy-rdoq=10.00 / no-rd-refine / no-lossless / cbqpoffs=0 / crqpoffs=0 / rc=abr / bitrate=12000 / qcomp=0.60 / qpstep=1 / stats-write=0 / stats-read=0 / vbv-maxrate=18000 / vbv-bufsize=18000 / vbv-init=0.9 / ipratio=1.10 / pbratio=1.00 / aq-mode=0 / aq-strength=0.00 / no-cutree / zone-count=0 / no-strict-cbr / qg-size=32 / rc-grain / qpmax=69 / qpmin=0 / const-vbv / sar=1 / overscan=0 / videoformat=5 / range=0 / colorprim=1 / transfer=1 / colormatrix=1 / chromaloc=0 / display-window=0 / max-cll=0,0 / min-luma=0 / max-luma=255 / log2-max-poc-lsb=8 / vui-timing-info / vui-hrd-info / slices=1 / no-opt-qp-pps / no-opt-ref-list-length-pps / no-multi-pass-opt-rps / scenecut-bias=0.05 / no-opt-cu-delta-qp / no-aq-motion / no-hdr / no-hdr-opt / no-dhdr10-opt / no-idr-recovery-sei / analysis-reuse-level=5 / scale-factor=0 / refine-intra=0 / refine-inter=0 / refine-mv=0 / refine-ctu-distortion=0 / no-limit-sao / ctu-info=0 / no-lowpass-dct / refine-analysis-type=0 / copy-pic=1 / max-ausize-factor=1.0 / no-dynamic-refine / no-single-sei / no-hevc-aq / qp-adaptation-range=1.00
Default : Yes
Forced : No
Color range : Limited
Color primaries : BT.709
Transfer characteristics : BT.709
Matrix coefficients : BT.709

Audio
ID : 2
Format : E-AC-3
Format/Info : Enhanced AC-3
Commercial name : Dolby Digital Plus
Codec ID : A_EAC3
Duration : 2 h 3 min
Bit rate mode : Constant
Bit rate : 256 kb/s
Channel(s) : 6 channels
Channel layout : L R C LFE Ls Rs
Sampling rate : 48.0 kHz
Frame rate : 31.250 FPS (1536 SPF)
Compression mode : Lossy
Stream size : 226 MiB (2%)
Language : English
Service kind : Complete Main
Default : Yes
Forced : No

Text
ID : 3
Format : UTF-8
Codec ID : S_TEXT/UTF8
Codec ID/Info : UTF-8 Plain Text
Duration : 2 h 1 min
Bit rate : 82 b/s
Count of elements : 3041
Stream size : 73.8 KiB (0%)
Language : English
Default : No
Forced : No

迅雷下载 赞(0) 在线观看

友情提示:如果你的迅雷下载提示"任务出错"、"因版权无法下载",请尝试用本站推荐软件【迅雷5】

据说分享下载会提高下载速度哦。BT电影天堂 » 前哨.2020.2160p.WEB.H265-HUZZAH

BT电影天堂 更新快 资源好 超清影院品质

高清电影最新电影