感谢支持
我们一直在努力发现好电影

深海狂鲨3.2020.1080p.AMZN.WEBRip.DDP5.1.x264-NTG 6.94GB


2020美国动作电影深海狂鲨3 1080p迅雷下载,艾玛·柯林斯博士和她的团队正在小快乐岛度过第三个夏天,研究气候变化对大白鲨的影响,这些大白鲨每年都会到附近的育儿室分娩。当她的前男友兼海洋生物学家理查德率领的“科学”小组出现在寻找三条牛鲨,我们很快就知道,这三条牛鲨不仅仅是牛鲨,他们的平静生活就被打乱了。
◎译  名 深海狂鲨3
◎片  名 Deep Blue Sea 3
◎年  代 2020
◎产  地 美国
◎类  别 动作 / 科幻 / 恐怖
◎语  言 英语
◎上映日期 2020-07-28(美国)
◎IMDb链接 https://www.imdb.com/title/tt11946300
◎豆瓣评分 0/10 from 0 users
◎豆瓣链接 https://movie.douban.com/subject/35101514/
◎片  长 99分钟
◎导  演 约翰·波罗 John Pogue
◎编  剧 德克·布莱克曼 Dirk Blackman
◎主  演 纳撒尼尔·布佐尼克 Nathaniel Buzolic
Emerson Brooks
布伦·福斯特 Bren Foster
苍丽娜 Reina Aoi
Alex Bhat
Siya Mayola
Ernest St Claire
DeVille Vannik
Brashaad Mayweather
坦妮娅·雷蒙德 Tania Raymonde
欧内斯特·圣·克莱尔 Ernest St.Clair

◎标  签 2020 | 美国 | 线上
Video
ID : 1
Format : AVC
Format/Info : Advanced Video Codec
Format profile : [email protected]
Format settings : CABAC / 4 Ref Frames
Format settings, CABAC : Yes
Format settings, Reference frames : 4 frames
Codec ID : V_MPEG4/ISO/AVC
Duration : 1 h 40 min
Bit rate mode : Constant
Bit rate : 9 292 kb/s
Nominal bit rate : 10 000 kb/s
Width : 1 920 pixels
Height : 800 pixels
Display aspect ratio : 2.40:1
Frame rate mode : Constant
Frame rate : 23.976 (24000/1001/189150) FPS
Color space : YUV
Chroma subsampling : 4:2:0
Bit depth : 8 bits
Scan type : Progressive
Bits/(Pixel*Frame) : 0.252
Stream size : 6.49 GiB (94%)
Default : Yes
Forced : No
Color range : Limited
Color primaries : BT.709
Transfer characteristics : BT.709
Matrix coefficients : BT.709

Audio
ID : 2
Format : E-AC-3
Format/Info : Enhanced AC-3
Commercial name : Dolby Digital Plus
Codec ID : A_EAC3
Duration : 1 h 40 min
Bit rate mode : Constant
Bit rate : 640 kb/s
Channel(s) : 6 channels
Channel layout : L R C LFE Ls Rs
Sampling rate : 48.0 kHz
Frame rate : 31.250 FPS (1536 SPF)
Compression mode : Lossy
Stream size : 458 MiB (6%)
Language : English
Service kind : Complete Main
Default : Yes
Forced : No

Text #1
ID : 3
Format : UTF-8
Codec ID : S_TEXT/UTF8
Codec ID/Info : UTF-8 Plain Text
Duration : 1 h 30 min
Bit rate : 50 b/s
Count of elements : 1079
Stream size : 33.7 KiB (0%)
Language : English
Default : No
Forced : No

Text #2
ID : 4
Format : UTF-8
Codec ID : S_TEXT/UTF8
Codec ID/Info : UTF-8 Plain Text
Duration : 1 h 39 min
Bit rate : 53 b/s
Count of elements : 1415
Stream size : 39.2 KiB (0%)
Title : SDH
Language : English
Default : No
Forced : No

迅雷下载 赞(0) 在线观看

友情提示:如果你的迅雷下载提示"任务出错"、"因版权无法下载",请尝试用本站推荐软件【迅雷5】

据说分享下载会提高下载速度哦。BT电影天堂 » 深海狂鲨3.2020.1080p.AMZN.WEBRip.DDP5.1.x264-NTG

BT电影天堂 更新快 资源好 超清影院品质

高清电影最新电影