感谢支持
我们一直在努力发现好电影

尼罗河圣母.2019.FRENCH.ENSUBBED.1080p.CRAV.WEBRip.DD5.1.x264-NTb 3.22GB


2019法国剧情电影尼罗河圣母.2019.FRENCH.ENSUBBED.1080p迅雷下载“我们的眼泪从哪里来?有人说它们是我们痛苦和破碎心灵的汁液。我们说,一千片山川的眼泪,是洗去我们的纯真之水。”
1973年,卢旺达:在尼罗河源头的高山上,一座圣母玛利亚的黑色雕像俯瞰着一所天主教女子寄宿学校。在这里,在充满了课堂、群众和实际工作的日子里,政治家、官员和商人的女儿们接受教育,有朝一日成为国家精英阶层中富有成效的成员。无论是胡图族还是图西族,女孩们都有着共同的好奇心、梦想和快乐的生活。然而,学校微观世界的社会动态和日益增多的冲突反映了殖民地秩序造成的破坏。极具象征意义的图片暗示了种族灭绝的暴力,这场暴力后来在1994年席卷了整个国家。V
◎译  名 尼罗河圣母 / Our Lady of the Nile
◎片  名 Notre-Dame du Nil
◎年  代 2019
◎产  地 法国 / 比利时 / 卢旺达
◎类  别 剧情
◎语  言 法语 / 卢旺达语
◎上映日期 2020-02-05(法国)
◎IMDb评分 3.0/10 from 174 users
◎IMDb链接 https://www.imdb.com/title/tt8690948
◎豆瓣评分 0/10 from 0 users
◎豆瓣链接 https://movie.douban.com/subject/30465758/
◎片  长 93分钟
◎导  演 阿提克·拉希米 Atiq Rahimi
◎编  剧 Scholastique Mukasonga / 阿提克·拉希米 Atiq Rahimi / Ramata Sy
◎主  演 Amanda Mugabezaki
      Albina Kirenga
      Malaika Uwamahoro
      Clariella Bizimana
      Belinda Rubango
      Ange Elsie Ineza
      Kelly Umuganwa Teta
      帕斯卡尔·格雷戈里 Pascal Greggory
      Carole Trevoux
      Alida Ngabonziza
      Solange Ngabonziza
      Khadja Nin
      Florida Uwera

◎标  签 卢旺达 | 法国 | 电影 | 法国电影 | 比利时电影 | 柏林电影节 | 卢旺达电影 | P-BerlinF新生代单元
Video
ID : 1
Format : AVC
Format/Info : Advanced Video Codec
Format profile : High@L4
Format settings : CABAC / 4 Ref Frames
Format settings, CABAC : Yes
Format settings, Reference frames : 4 frames
Codec ID : V_MPEG4/ISO/AVC
Duration : 1 h 33 min
Bit rate : 4 564 kb/s
Width : 1 920 pixels
Height : 1 080 pixels
Display aspect ratio : 16:9
Frame rate mode : Constant
Frame rate : 23.976 (24000/1001/189150) FPS
Color space : YUV
Chroma subsampling : 4:2:0
Bit depth : 8 bits
Scan type : Progressive
Bits/(Pixel*Frame) : 0.092
Stream size : 2.97 GiB (92%)
Default : Yes
Forced : No
Color range : Limited
Color primaries : BT.709
Transfer characteristics : BT.709
Matrix coefficients : BT.709

Audio
ID : 2
Format : AC-3
Format/Info : Audio Coding 3
Commercial name : Dolby Digital
Codec ID : A_AC3
Duration : 1 h 33 min
Bit rate mode : Constant
Bit rate : 384 kb/s
Channel(s) : 6 channels
Channel layout : L R C LFE Ls Rs
Sampling rate : 48.0 kHz
Frame rate : 31.250 FPS (1536 SPF)
Bit depth : 16 bits
Compression mode : Lossy
Stream size : 256 MiB (8%)
Language : French
Service kind : Complete Main
Default : Yes
Forced : No

Text
ID : 3
Format : UTF-8
Codec ID : S_TEXT/UTF8
Codec ID/Info : UTF-8 Plain Text
Duration : 1 h 33 min
Bit rate : 27 b/s
Count of elements : 1007
Stream size : 18.7 KiB (0%)
Title : SDH
Language : English
Default : No
Forced : No

迅雷下载 赞(0) 在线观看

友情提示:如果你的迅雷下载提示"任务出错"、"因版权无法下载",请尝试用本站推荐软件【迅雷5】

据说分享下载会提高下载速度哦。BT电影天堂 » 尼罗河圣母.2019.FRENCH.ENSUBBED.1080p.CRAV.WEBRip.DD5.1.x264-NTb

BT电影天堂 更新快 资源好 超清影院品质

高清电影最新电影