感谢支持
我们一直在努力发现好电影

迪斯科.2019.NORWEGIAN.720p.CRAV.WEBRip.DD5.1.x264-NTb 1.88GB


2019挪威剧情电影迪斯科.2019.NORWEGIAN.720p.CRAV.WEBRip完整版迅雷下载,表面上看,一切似乎都很完美。19岁的米尔贾姆是一个名为“自由”的福音派牧师的继女。作为迪斯科自由式舞蹈的世界冠军和教会青年团体的领袖,她是教会的骄傲。在捍卫自己的世界冠军头衔时,她瘫倒在舞台上。这让她开始质疑自己的信仰。她的家人的解决办法是让她成为一个更好的信徒。米尔贾姆试了一下,但她的身体仍然让她失望。由于不被人看见和寻求答案的感觉而沮丧,她被吸引到一个更严格、更保守的教会。她偷偷地去了他们的夏令营
◎译  名 迪斯科 / 跳起迪斯科
◎片  名 Disco
◎年  代 2019
◎大  小 1.88 GB
◎网  站 http://www.btdytt.co
◎产  地 挪威
◎类  别 剧情
◎语  言 挪威语
◎上映日期 2019-09(多伦多国际电影节) / 2019-10-04(挪威)
◎IMDb评分 5.6/10 from 378 users
◎IMDb链接 https://www.imdb.com/title/tt10864024
◎豆瓣评分 0/10 from 0 users
◎豆瓣链接 https://movie.douban.com/subject/34800440/
◎片  长 94分钟
◎导  演 Jorunn Myklebust Syversen
◎主  演 约瑟芬·弗里达·佩特森 Josefine Frida Pettersen
      尼克莱·克莱夫·布洛奇 Nicolai Cleve Broch
      Kj?rsti Odden Skjeldal
      安德莉亚·巴伦·郝威格 Andrea Br?in Hovig
      Espen Klouman H?iner

◎标  签 挪威 | JosefineFrida | 女神 | 【挪威】 | 2019 | TIFF2019 | P-TokyoA入围主竞赛 | P-SanSebastianC新导演单元
◎获奖情况

  第32届东京国际电影节(2019)
  主竞赛单元 最佳影片(提名) Jorunn Myklebust Syversen

  第67届圣塞巴斯蒂安国际电影节(2019)
  最佳新导演(提名) Jorunn Myklebust Syversen
Video
ID : 1
Format : AVC
Format/Info : Advanced Video Codec
Format profile : High@L3.1
Format settings : CABAC / 4 Ref Frames
Format settings, CABAC : Yes
Format settings, Reference frames : 4 frames
Codec ID : V_MPEG4/ISO/AVC
Duration : 1 h 34 min
Bit rate : 2 449 kb/s
Width : 1 280 pixels
Height : 720 pixels
Display aspect ratio : 16:9
Frame rate mode : Constant
Frame rate : 23.976 (24000/1001/189150) FPS
Color space : YUV
Chroma subsampling : 4:2:0
Bit depth : 8 bits
Scan type : Progressive
Bits/(Pixel*Frame) : 0.111
Stream size : 1.62 GiB (86%)
Default : Yes
Forced : No
Color range : Limited
Color primaries : BT.709
Transfer characteristics : BT.709
Matrix coefficients : BT.709

Audio
ID : 2
Format : AC-3
Format/Info : Audio Coding 3
Commercial name : Dolby Digital
Codec ID : A_AC3
Duration : 1 h 34 min
Bit rate mode : Constant
Bit rate : 384 kb/s
Channel(s) : 6 channels
Channel layout : L R C LFE Ls Rs
Sampling rate : 48.0 kHz
Frame rate : 31.250 FPS (1536 SPF)
Bit depth : 16 bits
Compression mode : Lossy
Stream size : 261 MiB (14%)
Language : Norwegian
Service kind : Complete Main
Default : Yes
Forced : No

Text
ID : 3
Format : UTF-8
Codec ID : S_TEXT/UTF8
Codec ID/Info : UTF-8 Plain Text
Duration : 1 h 34 min
Bit rate : 29 b/s
Count of elements : 958
Stream size : 20.8 KiB (0%)
Title : SDH
Language : English
Default : No
Forced : No

迅雷下载 赞(0) 在线观看

友情提示:如果你的迅雷下载提示"任务出错"、"因版权无法下载",请尝试用本站推荐软件【迅雷5】

据说分享下载会提高下载速度哦。BT电影天堂 » 迪斯科.2019.NORWEGIAN.720p.CRAV.WEBRip.DD5.1.x264-NTb

BT电影天堂 更新快 资源好 超清影院品质

高清电影最新电影