感谢支持
我们一直在努力发现好电影

夏尔之存亡.1969.FRENCH.720p.AMZN.WEBRip.DDP2.0.x264-TEPES 4.03GB


1969瑞士剧情电影夏尔之存亡.1969.FRENCH.720p.AMZN.WEBRip迅雷下载,瑞士导演Alain Tanner的第一部故事片。1968年,导演曾目击了5月的巴黎街头景象。他对那些年青示威者不很感兴趣,但却被那些游行部队中的年长者所感动。所以他拍照了这部电影,讲述了一个从资产阶级舒适生活中退出的老头子的故事。影片带有明显的1960年代颜色。
  故事的主角 Charles 是一个50岁的商人,他承继了宗族工业,成为公司老板。在公司的百年大庆上,他好像一点都高兴不起来,反而看上去一脸沮丧。本来此人与一般资本家不同,他对劳动阶级抱有同情心,此刻他担忧起工厂里的工人来。
  由于工作需要,Charles经常承受电视采访。而就在一次采访完毕后,他抛开自己的舒适生活和繁忙生意,离家出走了。
  很快他就碰到了同道中人,一对无政府主义男女。他们是那种1960年代典型的生活在中产阶级家庭的变节青年。后来男青年还把他的轿车推下了山崖,以示拒绝物质享受。Charles搬进了他们的陋室,整天读书考虑,谈论世事。女儿看到父亲跟那对男女呆在一起,十分高兴他能跟自己同享自由思想的兴趣。
  但他的儿子却很不认同他们。他雇人找到了父亲,并把父亲送进了精神病院。即便上了车,Charles也没遗忘向儿子宣传他的幸福观。
  这部电影最大的含义就在于其明显的时代特色。当时对工业社会的批评现已不仅仅是哲学家的事,知识青年以实际行动投入其间。理想主义具有了史无前例的坚实基础,但干流传统的干与总是会让理想幻灭。很难梦想,Charles如果没有被儿子找到的话,工作会往怎样的方向开展。
◎译  名 夏尔之存亡 / Charles, Dead or Alive
◎片  名 Charles mort ou vif
◎年  代 1969
◎大  小 4.03GB
◎产  地 瑞士
◎网  站 http://www.btdytt.co
◎类  别 剧情
◎语  言 法语
◎上映日期 1970-01-29
◎IMDb评分 7.2/10 from 290 users
◎IMDb链接 https://www.imdb.com/title/tt0064153
◎豆瓣评分 0/10 from 0 users
◎豆瓣链接 https://movie.douban.com/subject/3023852/
◎片  长 93 分钟
◎导  演 阿兰·泰纳 Alain Tanner
◎编  剧 阿兰·泰纳 Alain Tanner
◎主  演 弗朗索瓦·西蒙 Fran?ois Simon
      Robert Marcel
      Marie-Claire Dufour

◎标  签 瑞士 | 阿兰·泰纳 | AlainTanner | Alain_Tanner | 瑞士电影 | 1969 | 1960s | 剧情
Video
ID : 1
Format : AVC
Format/Info : Advanced Video Codec
Format profile : [email protected]
Format settings : CABAC / 4 Ref Frames
Format settings, CABAC : Yes
Format settings, Reference frames : 4 frames
Codec ID : V_MPEG4/ISO/AVC
Duration : 1 h 34 min
Bit rate mode : Constant
Bit rate : 6 000 kb/s
Width : 1 200 pixels
Height : 720 pixels
Display aspect ratio : 5:3
Frame rate mode : Constant
Frame rate : 24.000 FPS
Color space : YUV
Chroma subsampling : 4:2:0
Bit depth : 8 bits
Scan type : Progressive
Bits/(Pixel*Frame) : 0.289
Stream size : 3.88 GiB (96%)
Default : Yes
Forced : No
Color range : Limited
Color primaries : BT.709
Transfer characteristics : BT.709
Matrix coefficients : BT.709

Audio
ID : 2
Format : E-AC-3
Format/Info : Enhanced AC-3
Commercial name : Dolby Digital Plus
Codec ID : A_EAC3
Duration : 1 h 34 min
Bit rate mode : Constant
Bit rate : 224 kb/s
Channel(s) : 2 channels
Channel layout : L R
Sampling rate : 48.0 kHz
Frame rate : 31.250 FPS (1536 SPF)
Compression mode : Lossy
Stream size : 151 MiB (4%)
Language : French
Service kind : Complete Main
Default : Yes
Forced : No

Text #1
ID : 3
Format : UTF-8
Codec ID : S_TEXT/UTF8
Codec ID/Info : UTF-8 Plain Text
Duration : 1 h 33 min
Bit rate : 51 b/s
Count of elements : 1081
Stream size : 35.2 KiB (0%)
Language : English
Default : No
Forced : No

Text #2
ID : 4
Format : UTF-8
Codec ID : S_TEXT/UTF8
Codec ID/Info : UTF-8 Plain Text
Duration : 1 h 33 min
Bit rate : 57 b/s
Count of elements : 1089
Stream size : 39.1 KiB (0%)
Language : German
Default : No
Forced : No

迅雷下载 赞(0) 在线观看

友情提示:如果你的迅雷下载提示"任务出错"、"因版权无法下载",请尝试用本站推荐软件【迅雷5】

据说分享下载会提高下载速度哦。BT电影天堂 » 夏尔之存亡.1969.FRENCH.720p.AMZN.WEBRip.DDP2.0.x264-TEPES

BT电影天堂 更新快 资源好 超清影院品质

高清电影最新电影